<?xml version="1.0" standalone="no"?> <!DOCTYPE svg PUBLIC "-//W3C//DTD SVG 1.0//EN" "http://www.w3.org/TR/2001/REC-SVG-20010904/DTD/svg10.dtd" > <svg xmlns="http://www.w3.org/2000/svg" width="100%" height="100%">
<defs >
<font id="MgOpenModata" horiz-adv-x="424" ><font-face
    font-family="MgOpen Modata"
    units-per-em="1000"
    panose-1="0 0 4 0 0 0 0 0 0 0"
    ascent="882"
    descent="-237"
    alphabetic="0" />
<missing-glyph horiz-adv-x="270" />
<glyph unicode=" " glyph-name="space" horiz-adv-x="270" />
<glyph unicode="!" glyph-name="exclam" horiz-adv-x="198" d="M51 101Q75 101 89 85T104 47Q104 0 54 0Q29 0 14 17Q0 31 0 52Q0 101 51 101ZM85 181Q85 144 48 144Q12 144 12 181V725Q12 768 49 768Q85 768 85 725V181Z" />
<glyph unicode="&quot;" glyph-name="quotedbl" horiz-adv-x="309" d="M0 726Q0 769 37 769Q73 769 73 726V579Q73 540 36 540Q0 540 0 579V726ZM139 726Q139 769 177 769Q215 769 215 726V579Q215 540 176 540Q139 540 139 579V726Z" />
<glyph unicode="#" glyph-name="numbersign" horiz-adv-x="631" d="M156 518L184 730Q189 767 216 767Q230 767 241 756T251 730L221 518H361L391 730Q396 768 423 768Q437 768 447 757T456 730L428 518Q430 518 445 519T472 520Q537 520 537 486Q537 453 493
453H420L395 291Q398 291 412 291Q427 292 437 292Q503 292 503 257Q503 221 433 221Q421 221 406 222T387 223L360 49Q353 -1 317 -1Q289 -1 294 37L321 223H180L155 49Q147 -1 112 -1Q83 -1 88 37L115 223Q113 223 98 222T71 221Q0 221 0 257Q0 293 73 293Q86
293 103 292T123 291L148 453H74Q36 453 36 487Q36 518 74 518H156ZM213 453L188 291H329L353 453H213Z" />
<glyph unicode="$" glyph-name="dollar" horiz-adv-x="533" d="M189 770Q189 778 189 808Q188 840 210 840Q231 840 231 810V770Q273 770 328 746Q393 717 393 681Q393 646 359 646Q349 646 310 670T231 697V445Q338 412 392 347Q439 290 439 217Q439 132 379
66Q316 -1 231 -1Q231 -12 232 -50Q232 -77 211 -77Q190 -77 189 -47V-1Q159 -3 108 15Q63 31 35 49Q20 59 20 78Q20 114 53 114Q64 114 109 90T189 64V372Q95 395 45 452Q0 502 0 568Q0 640 52 699T189 770ZM231 72Q286 81 321 121T356 212Q356 314 231 356V72ZM189
697Q140 688 111 655T82 581Q82 542 108 511Q137 477 189 461V697Z" />
<glyph unicode="%" glyph-name="percent" horiz-adv-x="796" d="M539 369Q615 369 661 310Q702 257 702 181Q702 106 662 56Q617 -1 539 -1Q460 -1 413 58Q370 112 370 188Q370 262 411 312Q458 369 539 369ZM539 56Q587 56 614 94Q639 129 639 180Q639 233 613
270Q585 312 539 312Q491 312 463 272Q438 236 438 185Q438 132 463 96Q491 56 539 56ZM167 398Q90 398 43 457Q0 512 0 588Q0 662 41 712Q87 767 167 767Q245 767 291 709Q333 657 333 582Q333 507 292 455Q245 398 167 398ZM167 455Q215 455 244 494Q269 529
269 581Q269 633 242 671T167 710Q120 710 93 671Q68 636 68 584Q68 532 93 495Q121 455 167 455ZM183 35L455 733Q466 763 494 763Q524 763 524 731Q524 719 518 705L239 0Q234 -13 216 -13Q180 -13 180 19Q180 27 183 35Z" />
<glyph unicode="&amp;" glyph-name="ampersand" horiz-adv-x="724" d="M243 502Q293 518 319 553Q344 584 344 620Q344 655 321 679T259 704Q189 704 189 628Q189 552 243 502ZM472 108Q386 -22 250 -22Q151 -22 76 46T0 208Q0 349 176 461Q113 527 113 614Q113
679 150 723T254 768Q326 768 373 720Q416 674 416 611Q416 498 292 445L480 231L540 331Q562 370 590 370Q613 370 620 346Q628 321 609 291L532 165L621 67Q630 57 630 43Q630 26 618 12T590 -2Q576 -2 564 10L472 108ZM217 404Q81 314 81 207Q81 141 131 95T251
49Q362 49 432 165L217 404Z" />
<glyph unicode="&apos;" glyph-name="quotesingle" horiz-adv-x="243" d="M144 707L79 560Q67 533 40 533Q25 533 13 543T0 567Q0 573 2 578L63 732Q77 769 108 769Q124 769 136 757T149 728Q149 718 144 707Z" />
<glyph unicode="(" glyph-name="parenleft" horiz-adv-x="275" d="M144 689Q102 647 78 554Q54 465 54 356Q54 235 83 134Q115 21 175 -38Q181 -44 181 -52Q181 -62 172 -70T148 -78Q129 -78 111 -60Q60 -9 29 112Q0 228 0 362Q0 629 100 729Q112 741 124 741Q152
741 152 709Q152 697 144 689Z" />
<glyph unicode=")" glyph-name="parenright" horiz-adv-x="275" d="M37 689Q79 647 103 554Q127 465 127 356Q127 235 98 134Q66 21 6 -38Q0 -44 0 -52Q0 -62 9 -70T33 -78Q52 -78 69 -60Q121 -9 152 112Q181 228 181 362Q181 629 81 729Q69 741 56 741Q29 741
29 709Q29 697 37 689Z" />
<glyph unicode="*" glyph-name="asterisk" horiz-adv-x="595" d="M271 610Q263 726 263 727Q263 755 297 755Q330 755 328 725L320 610Q345 629 370 647Q413 676 428 676Q442 676 452 666T463 642Q463 621 436 610L336 569L436 529Q463 518 463 491Q463 458 427
458Q407 458 369 488Q344 508 320 529Q328 418 328 416Q328 377 295 377Q263 377 263 421Q263 421 271 529Q246 510 222 491Q178 460 162 460Q134 460 134 491Q134 520 156 529L255 569L156 610Q131 620 131 643Q131 675 164 675Q183 675 221 648Q246 629 271 610Z"
/>
<glyph unicode="+" glyph-name="plus" horiz-adv-x="595" d="M252 315V502Q252 541 290 541Q307 541 320 531T334 502V315H515Q538 315 551 302T565 272Q565 231 515 231H334V37Q334 20 321 10T291 -1Q252 -1 252 37V231H70Q29 231 29 274Q29 315 70 315H252Z" />
<glyph unicode="," glyph-name="comma" horiz-adv-x="242" d="M146 64L70 -113Q59 -138 37 -138Q23 -138 12 -127T0 -101Q0 -95 3 -88L70 76Q84 108 111 108Q129 108 140 94T146 64Z" />
<glyph unicode="-" glyph-name="hyphen" horiz-adv-x="372" d="M47 315H253Q296 315 296 276Q296 239 253 239H47Q3 239 3 276Q3 291 15 303T47 315Z" />
<glyph unicode="." glyph-name="period" horiz-adv-x="199" d="M52 101Q76 101 90 85T105 47Q105 0 55 0Q29 0 14 17Q0 31 0 52Q0 72 13 86T52 101Z" />
<glyph unicode="/" glyph-name="slash" horiz-adv-x="595" d="M469 718L195 19Q179 -20 153 -20Q134 -20 126 0Q117 21 129 51L405 732Q420 769 443 769Q472 769 472 734Q472 726 469 718Z" />
<glyph unicode="0" glyph-name="zero" horiz-adv-x="595" d="M297 767Q413 767 482 643Q544 532 544 372Q544 215 484 107Q418 -13 305 -13Q184 -13 114 108Q51 217 51 375Q51 534 113 645Q182 767 297 767ZM305 52Q374 52 416 155Q455 249 455 380Q455 509 416
596Q373 694 297 694Q222 694 177 594Q136 503 136 373Q136 242 178 152Q224 52 305 52Z" />
<glyph unicode="1" glyph-name="one" horiz-adv-x="595" d="M332 667H234Q190 667 190 704Q190 740 233 740H356Q392 740 400 722Q405 713 405 671V38Q405 0 369 0Q332 0 332 38V667Z" />
<glyph unicode="2" glyph-name="two" horiz-adv-x="595" d="M85 549Q85 657 146 715Q199 767 281 767Q370 767 437 712Q509 653 509 564Q509 478 439 386L200 73H471Q508 73 508 37Q508 0 471 0H150Q95 0 95 36Q95 53 110 73L382 443Q423 499 423 555Q423 615
379 655T281 696Q233 696 202 660Q167 620 167 544Q167 515 127 515Q85 515 85 549Z" />
<glyph unicode="3" glyph-name="three" horiz-adv-x="595" d="M308 766Q392 766 442 706Q487 651 487 570Q487 458 406 388Q515 337 515 215Q515 126 455 59Q390 -13 291 -13Q145 -13 85 117Q79 130 79 144Q79 163 90 176T117 190Q136 190 149 169Q182 114 195
102Q233 64 293 64Q359 64 397 107Q431 146 431 203Q431 259 398 300Q362 344 300 348Q254 350 254 385Q254 421 299 421T375 466T405 568Q405 620 377 654Q345 692 284 692Q198 692 192 578Q190 535 151 535Q108 535 108 585Q108 669 167 719Q223 766 308 766Z"
/>
<glyph unicode="4" glyph-name="four" horiz-adv-x="595" d="M389 189H100Q47 189 47 234Q47 254 60 274L321 695Q350 742 398 742Q425 742 443 723T462 670V265H510Q547 265 547 225Q547 190 514 190L462 189V47Q462 0 425 0Q389 0 389 47V189ZM141 265H389V670L141
265Z" />
<glyph unicode="5" glyph-name="five" horiz-adv-x="595" d="M260 740H474Q491 740 501 727T511 697Q511 659 474 659H268L235 453Q279 474 321 474Q444 474 499 348Q550 228 498 113Q440 -13 290 -13Q163 -13 96 76Q83 92 83 114Q83 154 109 154Q125 154 141
131Q160 105 199 86Q245 63 295 63Q366 63 406 113Q442 158 442 225Q442 294 404 345Q361 400 292 400Q269 400 239 385T190 370Q152 370 152 407Q152 413 153 421L203 700Q210 740 260 740Z" />
<glyph unicode="6" glyph-name="six" horiz-adv-x="595" d="M389 679Q262 561 214 461Q275 482 321 482Q413 482 467 408Q517 340 517 242Q517 139 462 67Q401 -13 297 -13Q190 -13 130 72Q78 147 78 256Q78 286 82 315Q117 541 324 728Q341 743 358 743Q375 743
387 731T400 703Q400 689 389 679ZM297 413Q232 413 195 358Q161 310 161 239Q161 167 196 116Q234 60 297 60Q358 60 396 117Q429 169 429 242Q429 312 397 359Q361 413 297 413Z" />
<glyph unicode="7" glyph-name="seven" horiz-adv-x="595" d="M117 741H471Q524 741 524 712Q524 697 511 668L246 41Q228 0 198 0Q165 0 165 39Q165 55 172 72L422 660H117Q71 660 71 701Q71 741 117 741Z" />
<glyph unicode="8" glyph-name="eight" horiz-adv-x="595" d="M199 413Q109 469 109 578Q109 654 156 707Q208 766 291 766Q380 766 435 708Q486 654 486 578Q486 474 397 413Q458 383 490 327Q520 276 520 214Q520 124 464 58Q403 -13 307 -13Q199 -13 134 59Q74
125 74 217Q74 280 105 331Q138 387 199 413ZM291 372Q229 372 192 324Q158 281 158 219Q158 158 193 116Q232 69 299 69Q362 69 400 115Q433 157 433 217Q433 280 398 323Q358 372 291 372ZM299 445Q350 445 379 483Q405 517 405 567Q405 618 379 653Q349 693
299 693Q243 693 210 655Q182 622 182 573Q182 522 212 485Q245 445 299 445Z" />
<glyph unicode="9" glyph-name="nine" horiz-adv-x="595" d="M336 282Q286 258 239 258Q141 258 83 336Q29 407 29 508Q29 613 87 685Q151 766 263 766Q367 766 425 679Q475 604 475 494Q475 367 409 229Q335 73 210 -8Q203 -13 193 -13Q177 -13 163 -2T148 25Q148
40 163 53Q303 175 336 282ZM263 693Q196 693 156 633Q120 580 120 504Q120 433 153 385Q190 331 255 331Q323 331 361 385Q395 432 395 504Q395 579 361 633Q323 693 263 693Z" />
<glyph unicode=":" glyph-name="colon" horiz-adv-x="197" d="M50 455Q75 455 89 439T103 401Q103 352 54 352Q29 352 14 370Q0 385 0 407Q0 455 50 455ZM54 0Q0 0 0 50Q0 71 13 86T50 101Q74 101 90 84Q103 68 103 47Q103 0 54 0Z" />
<glyph unicode=";" glyph-name="semicolon" horiz-adv-x="211" d="M65 445Q89 445 103 429T118 391Q118 343 68 343Q43 343 29 359T14 397Q14 445 65 445ZM-34 -93L26 59Q40 95 76 95Q114 95 114 67Q114 62 112 57L42 -113Q34 -131 8 -131Q-8 -131 -21 -123T-35
-102Q-35 -97 -34 -93Z" />
<glyph unicode="&lt;" glyph-name="less" horiz-adv-x="595" d="M541 471L129 273L533 77Q570 59 570 30Q570 1 537 1Q520 1 498 12L54 233Q19 250 19 279Q19 308 54 324L509 536Q538 550 558 541Q575 534 575 514Q575 487 541 471Z" />
<glyph unicode="=" glyph-name="equal" horiz-adv-x="595" d="M62 428H532Q569 428 569 390Q569 355 532 355H62Q26 355 26 393Q26 428 62 428ZM62 148Q26 148 26 184Q26 221 62 221H532Q569 221 569 185Q569 148 532 148H62Z" />
<glyph unicode="&gt;" glyph-name="greater" horiz-adv-x="595" d="M456 267L52 473Q19 490 19 515Q19 546 54 546Q66 546 78 541L531 319Q576 297 576 272Q576 244 523 219L78 6Q67 1 56 1Q20 1 20 36Q20 64 52 79L456 267Z" />
<glyph unicode="?" glyph-name="question" horiz-adv-x="467" d="M157 101Q182 101 196 86T210 48Q210 0 159 0Q135 0 121 16T106 53Q106 101 157 101ZM118 239V406Q118 434 163 449Q229 472 247 486Q292 520 292 595Q292 634 252 666T163 698Q90 698 57 621Q50
604 32 604Q0 604 0 637Q0 644 3 653Q23 709 74 740Q121 769 181 769Q258 769 313 723Q373 672 373 587Q373 418 201 381V239Q201 196 160 196Q143 196 131 207T118 239Z" />
<glyph unicode="@" glyph-name="at" horiz-adv-x="848" d="M514 510Q517 537 531 552T562 567Q590 567 590 535Q590 509 542 386Q495 269 500 231Q505 198 531 198Q576 198 635 275Q697 356 697 437Q697 557 591 629Q498 693 373 693Q226 693 142 593Q66 504 66
373Q66 240 143 146Q230 43 374 43Q447 43 519 66Q601 93 644 141Q667 166 687 165Q704 165 704 146Q704 128 686 108Q577 -14 374 -14Q199 -14 94 107Q0 217 0 373Q0 527 93 632Q196 750 374 750Q533 750 638 674Q754 591 754 442Q754 323 673 229Q602 146 519
133Q434 120 422 198Q380 132 296 132Q235 132 193 172Q146 217 146 296Q146 406 220 499T382 592Q459 592 514 510ZM229 300Q229 208 301 208Q361 208 416 270Q476 337 476 428Q476 511 401 511Q340 511 288 455Q229 392 229 300Z" />
<glyph unicode="A" glyph-name="A" horiz-adv-x="648" d="M139 231H435L289 638L139 231ZM468 149H114L77 38Q64 -1 32 -1Q0 -1 0 34Q0 43 4 55L230 695Q247 740 288 740Q329 740 346 695L580 55Q584 43 584 33Q584 -1 550 -1Q523 -1 514 24L468 149Z" />
<glyph unicode="B" glyph-name="B" horiz-adv-x="547" d="M0 692Q0 740 41 740H164Q286 740 351 685Q407 637 407 564Q407 510 376 465T296 404Q377 390 423 332Q465 279 465 208Q465 124 410 65Q349 0 248 0H58Q25 0 14 8Q0 17 0 49V692ZM74 73H223Q299 73 342
114Q382 152 382 207Q382 269 333 314Q279 364 188 364H74V73ZM164 429Q244 429 289 466Q329 499 329 549Q329 596 292 630Q252 667 188 667H74V429H164Z" />
<glyph unicode="C" glyph-name="C" horiz-adv-x="602" d="M518 131Q530 143 545 143Q559 143 569 133T579 108Q579 89 560 72Q469 -12 346 -12Q208 -12 108 89Q0 199 0 376Q0 545 100 655Q192 756 325 766Q460 776 560 683Q579 666 579 647Q579 633 569 623T545
612Q530 612 518 624Q453 689 360 689Q253 689 176 609Q91 520 91 375Q91 232 175 144Q251 65 357 65Q452 65 518 131Z" />
<glyph unicode="D" glyph-name="D" horiz-adv-x="629" d="M0 692Q0 740 58 740H256Q394 740 478 621Q554 513 554 361Q554 213 481 112Q399 0 256 0H42Q18 0 9 7T0 41V692ZM223 667H74V73H231Q344 73 411 166Q471 251 471 371Q471 492 410 575Q341 667 223 667Z" />
<glyph unicode="E" glyph-name="E" horiz-adv-x="394" d="M0 695Q0 740 41 740H295Q332 740 332 703Q332 667 295 667H73V421H287Q324 421 324 383Q324 348 287 348H73V73H303Q346 73 346 36Q346 0 303 0H41Q14 0 7 9T0 45V695Z" />
<glyph unicode="F" glyph-name="F" horiz-adv-x="381" d="M0 692Q0 740 41 740H296Q333 740 333 703Q333 667 296 667H74V413H272Q309 413 309 375Q309 339 272 339H74V30Q74 0 36 0Q0 0 0 30V692Z" />
<glyph unicode="G" glyph-name="G" horiz-adv-x="688" d="M554 350H434Q390 350 390 386Q390 423 437 423H570Q613 423 626 397Q635 380 635 334Q635 170 540 74Q455 -12 329 -12Q197 -12 104 82Q0 187 0 363Q0 543 106 658Q205 766 345 766Q467 766 565 677Q582
661 582 645Q582 630 571 621T544 611Q527 611 514 623Q444 687 354 687Q248 687 173 604Q91 513 91 366Q91 227 170 142Q241 64 340 64Q432 64 491 134Q558 212 554 350Z" />
<glyph unicode="H" glyph-name="H" horiz-adv-x="647" d="M0 705Q0 742 36 742Q73 742 73 705V413H486V705Q486 742 522 742Q560 742 560 705V36Q560 -1 522 -1Q486 -1 486 36V339H73V36Q73 -1 37 -1Q0 -1 0 36V705Z" />
<glyph unicode="I" glyph-name="I" horiz-adv-x="161" d="M0 705Q0 742 36 742Q73 742 73 705V37Q73 0 36 0Q0 0 0 37V705Z" />
<glyph unicode="J" glyph-name="J" horiz-adv-x="401" d="M315 705V149Q315 71 264 26Q217 -14 148 -14Q68 -14 12 37Q0 48 0 65Q0 103 34 103Q43 103 76 80T149 57Q192 57 216 81T240 149V705Q240 742 277 742Q315 742 315 705Z" />
<glyph unicode="K" glyph-name="K" horiz-adv-x="563" d="M0 711Q0 742 36 742Q74 742 74 711V429L423 731Q434 740 446 740Q462 740 474 728T487 700Q487 686 477 677L139 388L494 65Q507 53 507 38Q507 23 496 12T469 1Q451 1 435 16L74 356V32Q74 -1 38 -1Q0
-1 0 32V711Z" />
<glyph unicode="L" glyph-name="L" horiz-adv-x="348" d="M0 705Q0 742 36 742Q73 742 73 705V73H264Q301 73 301 37Q301 0 264 0H49Q0 0 0 57V705Z" />
<glyph unicode="M" glyph-name="M" horiz-adv-x="878" d="M232 677L396 124L569 677Q589 742 638 742Q689 742 700 669L803 45Q806 25 796 13T769 1Q733 1 727 41L635 652L437 43Q422 0 396 0Q369 0 355 43L165 652L75 42Q69 1 32 1Q-6 1 1 47L100 669Q111 744
164 744Q212 744 232 677Z" />
<glyph unicode="N" glyph-name="N" horiz-adv-x="638" d="M0 698Q0 742 36 742Q64 742 88 706L478 132V703Q478 741 514 741Q551 741 551 703V44Q551 -1 515 -1Q486 -1 465 30L73 602V38Q73 -1 37 -1Q0 -1 0 38V698Z" />
<glyph unicode="O" glyph-name="O" horiz-adv-x="717" d="M318 765Q471 765 561 643Q643 533 643 375Q643 218 562 109Q472 -12 318 -12Q169 -12 80 111Q0 221 0 379Q0 536 79 645Q167 765 318 765ZM318 692Q206 692 142 595Q84 508 84 382Q84 253 143 162Q209
62 318 62Q433 62 499 159Q559 246 559 373Q559 502 498 592Q431 692 318 692Z" />
<glyph unicode="P" glyph-name="P" horiz-adv-x="506" d="M0 701Q0 741 41 741H223Q335 741 400 670Q458 607 458 514Q458 424 403 360Q342 291 239 291H73V37Q73 0 37 0Q0 0 0 37V701ZM199 668H73V364H215Q294 364 341 411Q384 454 384 515Q384 577 338 620Q287
668 199 668Z" />
<glyph unicode="Q" glyph-name="Q" horiz-adv-x="728" d="M534 77Q465 -13 311 -13Q167 -13 79 112Q0 225 0 385Q0 541 78 647Q166 765 319 765Q474 765 561 644Q637 537 637 377Q637 242 583 134Q595 120 647 64Q655 55 655 41Q655 26 645 13T621 0Q610 0 600
10L534 77ZM319 60Q424 60 483 134Q475 142 429 187Q415 200 415 216Q415 233 427 245T455 257Q469 257 479 246L526 199Q558 283 558 384Q558 513 504 595Q441 692 319 692Q205 692 139 594Q80 507 80 380Q80 251 140 160Q207 60 319 60Z" />
<glyph unicode="R" glyph-name="R" horiz-adv-x="508" d="M0 701Q0 741 57 741H207Q319 741 382 682Q437 630 437 551Q437 473 385 416Q329 355 239 355H172L421 67Q434 52 434 34Q434 -2 401 -2Q382 -2 364 19L73 355V45Q73 -1 37 -1Q0 -1 0 45V701ZM215 668H73V428H215Q285
428 328 467Q366 501 366 551Q366 599 329 632Q287 668 215 668Z" />
<glyph unicode="S" glyph-name="S" horiz-adv-x="518" d="M329 652Q279 689 211 689Q159 689 126 664Q89 635 89 581Q89 524 181 479Q337 403 352 392Q444 325 444 215Q444 106 369 44Q301 -13 199 -13Q104 -13 27 38Q0 56 0 82Q0 116 34 116Q51 116 69 104Q137
62 214 62Q279 62 319 96Q364 135 364 210Q364 297 273 345Q189 383 105 421Q14 474 14 573Q14 666 74 718Q128 765 211 765Q299 765 370 713Q398 692 398 667Q398 637 367 637Q349 637 329 652Z" />
<glyph unicode="T" glyph-name="T" horiz-adv-x="501" d="M187 668H40Q0 668 0 704Q0 741 40 741H409Q447 741 447 704Q447 668 409 668H261V42Q261 0 225 0Q187 0 187 42V668Z" />
<glyph unicode="U" glyph-name="U" horiz-adv-x="652" d="M0 698Q0 741 41 741Q81 741 81 698V253Q81 138 186 87Q284 39 381 82Q486 130 486 253V698Q486 741 527 741Q568 741 568 698V245Q568 125 478 53Q397 -12 280 -12Q166 -12 87 52Q0 123 0 245V698Z" />
<glyph unicode="V" glyph-name="V" horiz-adv-x="630" d="M77 713L283 124L487 713Q497 742 522 742Q538 742 552 730T566 701Q566 695 563 689L340 62Q318 -1 283 -1Q252 -1 232 53L3 689Q0 698 0 707Q0 743 38 743Q66 743 77 713Z" />
<glyph unicode="W" glyph-name="W" horiz-adv-x="875" d="M77 705L180 92L350 704Q361 742 403 742Q445 742 455 704L617 92L718 703Q725 744 761 744Q779 744 791 731T799 696L683 51Q674 -1 621 -1Q578 -1 568 35L403 636L239 51Q225 0 173 0Q122 0 115 43L1
696Q-3 717 9 729T38 742Q71 742 77 705Z" />
<glyph unicode="X" glyph-name="X" horiz-adv-x="632" d="M234 407L38 683Q29 696 29 708Q29 723 39 732T64 742Q84 742 97 724L280 473L441 723Q453 741 472 741Q486 741 497 731T508 705Q508 693 500 682L320 416L554 64Q568 43 568 27Q568 -2 539 -2Q517 -2
501 21L276 348L67 22Q52 -2 29 -2Q0 -2 0 28Q0 44 12 62L234 407Z" />
<glyph unicode="Y" glyph-name="Y" horiz-adv-x="538" d="M197 348L7 681Q0 694 0 707Q0 742 33 742Q52 742 64 721L239 429L410 719Q424 742 446 742Q479 742 479 710Q479 699 473 689L272 348V43Q272 0 235 0Q197 0 197 43V348Z" />
<glyph unicode="Z" glyph-name="Z" horiz-adv-x="570" d="M397 668H52Q14 668 14 704Q14 741 52 741H454Q505 741 505 708Q505 688 486 660L100 73H478Q517 73 517 38Q517 0 478 0H35Q0 0 0 42Q0 65 11 81L397 668Z" />
<glyph unicode="[" glyph-name="bracketleft" horiz-adv-x="240" d="M0 709Q0 758 41 758H114Q146 758 146 722Q146 692 115 692L73 693V2H115Q146 2 146 -29Q146 -63 114 -63H41Q0 -63 0 -14V709Z" />
<glyph unicode="\" glyph-name="backslash" horiz-adv-x="444" d="M76 717L348 35Q350 30 350 24Q350 11 340 0T315 -11Q289 -11 274 27L3 709Q0 717 0 724Q0 755 31 755Q61 755 76 717Z" />
<glyph unicode="]" glyph-name="bracketright" horiz-adv-x="240" d="M73 685Q61 685 31 684Q0 684 0 716Q0 750 31 750H106Q146 750 146 701V-14Q146 -63 106 -63H31Q0 -63 0 -26Q0 2 26 2H73V685Z" />
<glyph unicode="^" glyph-name="asciicircum" horiz-adv-x="595" d="M343 725L558 331Q566 316 566 301Q566 266 534 266Q504 266 482 307L302 644L112 307Q90 267 59 267Q29 267 29 300Q29 314 38 331L261 725Q275 750 302 750Q329 750 343 725Z" />
<glyph unicode="_" glyph-name="underscore" horiz-adv-x="503" d="M0 -129Q-38 -129 -38 -96Q-38 -63 0 -63H499Q538 -63 538 -97Q538 -129 499 -129H0Z" />
<glyph unicode="`" glyph-name="grave" horiz-adv-x="243" d="M147 707L79 553Q69 529 39 529Q0 529 0 558Q0 563 3 569L70 725Q80 747 107 747Q123 747 136 739T149 717Q149 712 147 707Z" />
<glyph unicode="a" glyph-name="a" horiz-adv-x="548" d="M229 50Q306 50 353 122Q395 187 395 279Q395 368 354 429Q308 497 229 497Q158 497 116 428Q79 365 79 274Q79 183 116 120Q158 50 229 50ZM229 573Q279 573 325 547T393 482Q393 496 392 529Q392 577
430 577Q467 577 467 531V21Q467 -9 431 -9Q395 -9 394 19T393 62Q358 18 314 2Q278 -12 215 -12Q111 -12 51 74Q-2 151 -2 266Q-2 388 57 476Q122 573 229 573Z" />
<glyph unicode="b" glyph-name="b" horiz-adv-x="546" d="M0 701Q0 740 37 740Q74 740 74 701V478Q137 573 239 573Q348 573 413 480Q472 397 472 277Q472 159 414 78Q350 -13 239 -13Q133 -13 74 67V29Q74 10 63 -1T36 -12Q0 -12 0 30V701ZM239 52Q310 52 351
121Q387 183 387 274Q387 367 350 433Q308 506 239 506Q162 506 117 434Q76 370 76 278Q76 186 116 123Q162 52 239 52Z" />
<glyph unicode="c" glyph-name="c" horiz-adv-x="437" d="M349 460Q340 460 310 477T248 495Q170 495 123 425Q80 362 80 273Q80 188 120 131Q165 67 244 67Q270 67 307 79T351 92Q388 92 388 57Q388 35 369 19Q330 -13 255 -13Q134 -13 63 78Q0 159 0 278Q0 397
64 481Q134 573 253 573Q279 573 313 564Q353 553 374 535Q391 521 391 501Q391 485 379 473T349 460Z" />
<glyph unicode="d" glyph-name="d" horiz-adv-x="552" d="M395 480V702Q395 741 433 741Q469 741 469 702V19Q469 -15 433 -15Q395 -15 395 20V67Q343 -14 232 -14Q121 -14 57 75Q0 156 0 273Q0 394 59 479Q124 573 232 573Q322 573 395 480ZM232 497Q161 497
119 427Q80 364 80 274Q80 186 118 126Q160 59 232 59Q311 59 358 127Q399 189 399 277Q399 367 357 429Q311 497 232 497Z" />
<glyph unicode="e" glyph-name="e" horiz-adv-x="537" d="M242 574Q349 574 411 507T473 324Q473 243 447 243H85Q85 172 137 112T258 52Q299 52 338 74Q357 84 394 113Q421 135 433 135Q448 135 459 123T470 97Q470 85 463 77Q392 -13 258 -13Q135 -13 63 79Q0
160 0 280Q0 399 62 482Q129 574 242 574ZM85 319H398Q398 407 350 458Q307 504 244 504Q181 504 136 458Q87 406 85 319Z" />
<glyph unicode="f" glyph-name="f" horiz-adv-x="297" d="M88 479H41Q0 479 0 515Q0 554 41 554H88V650Q88 742 169 742H234Q278 742 278 707Q278 674 234 674Q187 674 178 670Q161 662 161 624V554Q177 554 225 555Q266 555 266 517Q266 478 223 478L161 479V36Q161
-1 124 -1Q88 -1 88 36V479Z" />
<glyph unicode="g" glyph-name="g" horiz-adv-x="555" d="M244 506Q169 506 125 437Q86 375 86 284Q86 191 126 126Q170 53 244 53Q318 53 362 125Q402 189 402 281Q402 373 363 436Q319 506 244 506ZM399 489V543Q399 576 435 576Q473 576 473 541V13Q473 -96
410 -161T238 -227Q114 -227 37 -162Q19 -146 19 -123Q19 -88 50 -88Q60 -88 72 -94Q106 -112 139 -130Q191 -153 244 -153Q399 -153 399 70Q380 31 333 8Q292 -12 244 -12Q129 -12 61 80Q0 163 0 282Q0 400 61 482Q129 573 244 573Q290 573 333 551T399 489Z"
/>
<glyph unicode="h" glyph-name="h" horiz-adv-x="496" d="M0 702Q0 741 36 741Q73 741 73 702V496Q130 572 226 572Q303 572 358 522Q418 468 418 382V36Q418 -1 381 -1Q345 -1 345 36V350Q345 423 303 465Q265 503 210 503Q155 503 116 465Q73 422 73 350V36Q73
-1 36 -1Q0 -1 0 36V702Z" />
<glyph unicode="i" glyph-name="i" horiz-adv-x="180" d="M51 742Q75 742 89 726T104 688Q104 640 50 640Q27 640 14 656T0 694Q0 742 51 742ZM15 536Q15 573 51 573Q89 573 89 536V37Q89 -1 52 -1Q15 -1 15 37V536Z" />
<glyph unicode="j" glyph-name="j" horiz-adv-x="180" d="M51 742Q75 742 89 726T104 688Q104 640 53 640Q29 640 15 656T0 694Q0 742 51 742ZM15 536Q15 574 52 574Q89 574 89 536V-195Q89 -232 51 -232Q15 -232 15 -195V536Z" />
<glyph unicode="k" glyph-name="k" horiz-adv-x="460" d="M0 703Q0 740 37 740Q73 740 73 703V364L311 553Q322 562 335 562Q350 562 362 550T374 522Q374 502 353 486L130 315L378 77Q402 54 402 31Q402 -3 367 -3Q343 -3 320 20L73 256V36Q73 0 36 0Q0 0 0 36V703Z" />
<glyph unicode="l" glyph-name="l" horiz-adv-x="157" d="M0 704Q0 742 36 742Q74 742 74 704V37Q74 -1 37 -1Q0 -1 0 37V704Z" />
<glyph unicode="m" glyph-name="m" horiz-adv-x="811" d="M0 530Q0 574 37 574Q75 574 74 530L73 494Q130 573 219 573Q318 573 370 478Q433 573 546 573Q622 573 676 526Q733 476 733 396V38Q733 2 696 2Q658 2 658 38V364Q658 427 622 463Q590 496 542 496Q487
496 447 456Q402 412 402 339V38Q402 1 366 1Q329 1 329 38V364Q329 426 293 462Q260 494 212 494Q157 494 117 455Q73 411 73 339V38Q73 1 37 1Q0 1 0 38V530Z" />
<glyph unicode="n" glyph-name="n" horiz-adv-x="497" d="M0 539Q0 573 36 573Q73 573 74 537Q75 497 74 486Q128 573 234 573Q309 573 362 524Q420 471 420 380V36Q420 -1 382 -1Q345 -1 345 36V372Q345 430 308 465Q273 496 223 496Q164 496 122 455Q74 409
74 331V36Q74 -1 36 -1Q0 -1 0 36V539Z" />
<glyph unicode="o" glyph-name="o" horiz-adv-x="560" d="M242 573Q355 573 423 479Q484 395 484 274Q484 157 424 77Q358 -12 242 -12Q127 -12 60 80Q0 162 0 281Q0 400 60 482Q127 573 242 573ZM242 506Q165 506 122 438Q84 378 84 288Q84 195 124 127Q169 53
242 53Q319 53 362 120Q401 179 401 268Q401 362 359 431Q314 506 242 506Z" />
<glyph unicode="p" glyph-name="p" horiz-adv-x="546" d="M0 537Q0 574 38 574Q75 574 75 533L74 478Q149 573 231 573Q345 573 413 480Q474 395 474 275Q474 157 414 76Q347 -14 231 -14Q145 -14 74 67V-194Q74 -231 36 -231Q0 -231 0 -194V537ZM231 51Q304 51
347 123Q386 187 386 280Q386 372 348 435Q305 506 231 506Q156 506 113 436Q74 374 74 282Q74 189 114 124Q158 51 231 51Z" />
<glyph unicode="q" glyph-name="q" horiz-adv-x="551" d="M241 573Q338 573 395 478Q395 490 396 528Q396 575 433 575Q470 575 470 532V-194Q470 -231 432 -231Q395 -231 395 -194V70Q341 -12 241 -12Q129 -12 61 82Q0 167 0 287Q0 405 59 484Q126 573 241 573ZM241
506Q166 506 123 437Q84 376 84 286Q84 192 124 126Q168 53 241 53Q315 53 358 124Q397 187 397 278Q397 370 358 435Q314 506 241 506Z" />
<glyph unicode="r" glyph-name="r" horiz-adv-x="311" d="M0 532Q0 574 37 574Q73 574 73 534V463Q142 573 203 573Q225 573 240 558T256 520Q256 495 208 477Q144 453 121 432Q73 388 73 300V38Q73 1 37 1Q0 1 0 38V532Z" />
<glyph unicode="s" glyph-name="s" horiz-adv-x="474" d="M61 130Q80 104 130 83T227 61Q323 61 323 150Q323 196 244 234Q169 268 95 302Q15 349 15 418Q15 496 70 537Q118 573 195 573Q303 573 374 514Q390 500 390 479Q390 440 358 440Q347 440 335 447Q255
498 174 498Q97 498 97 427Q97 395 178 358Q305 299 328 284Q409 230 409 160Q409 78 347 31Q290 -11 206 -11Q79 -11 11 68Q0 81 0 99Q0 117 10 131T35 146Q49 146 61 130Z" />
<glyph unicode="t" glyph-name="t" horiz-adv-x="315" d="M86 486H36Q0 486 0 520Q0 554 34 553H86V704Q86 741 123 741Q160 741 160 704V553Q171 553 209 553Q248 553 248 519Q248 485 211 485L160 486V36Q160 -1 122 -1Q86 -1 86 36V486Z" />
<glyph unicode="u" glyph-name="u" horiz-adv-x="499" d="M0 518Q0 555 36 555Q73 555 73 518V195Q73 128 115 90Q153 55 207 55Q263 55 302 90Q345 130 345 195V518Q345 555 381 555Q418 555 418 518V171Q418 57 310 10Q209 -34 108 9Q0 56 0 171V518Z" />
<glyph unicode="v" glyph-name="v" horiz-adv-x="479" d="M76 512L203 124L336 513Q350 556 380 556Q412 556 412 521Q412 513 409 505L246 30Q235 -1 202 -1Q173 -1 162 30L3 504Q0 513 0 521Q0 554 31 554Q63 554 76 512Z" />
<glyph unicode="w" glyph-name="w" horiz-adv-x="839" d="M78 524L202 124L343 519Q355 554 384 554Q413 554 424 519L557 124L693 525Q703 556 735 556Q772 556 772 518Q772 505 766 490L599 38Q585 1 556 1Q526 1 513 41L384 445L254 38Q241 0 206 0Q170 0 156
41L5 489Q0 503 0 515Q0 555 37 555Q68 555 78 524Z" />
<glyph unicode="x" glyph-name="x" horiz-adv-x="521" d="M181 299L39 489Q28 504 28 518Q28 534 39 544T66 554Q90 554 105 532L227 357L351 533Q366 555 389 555Q405 555 416 545T428 520Q428 505 416 490L269 305L435 80Q454 54 454 33Q454 -1 422 -1Q395 -1
372 31L222 239L72 30Q53 2 29 2Q0 2 0 33Q0 53 17 76L181 299Z" />
<glyph unicode="y" glyph-name="y" horiz-adv-x="492" d="M173 27L5 493Q0 506 0 517Q0 554 35 554Q67 554 78 519L206 124L347 524Q358 555 389 555Q425 555 425 519Q425 509 420 497L173 -194Q161 -228 130 -228Q96 -228 96 -192Q96 -182 100 -170L173 27Z" />
<glyph unicode="z" glyph-name="z" horiz-adv-x="475" d="M50 554H355Q400 554 400 523Q400 501 379 471L99 73H379Q416 73 416 37Q416 0 379 0H58Q0 0 0 36Q0 55 18 81L288 479H50Q13 479 13 517Q13 554 50 554Z" />
<glyph unicode="{" glyph-name="braceleft" horiz-adv-x="361" d="M0 351Q0 368 16 375T50 388Q104 410 104 544Q104 579 100 623T96 668Q96 727 140 742Q161 750 235 750Q248 750 257 740T267 719Q267 693 224 693Q198 693 187 685Q170 673 170 636Q170 620 171
587T172 537Q172 395 88 348Q172 323 172 160Q172 142 171 114T170 76Q170 25 192 10Q202 3 234 2T267 -26Q267 -55 235 -55Q158 -55 135 -44Q96 -25 96 43Q96 54 98 95T101 162Q101 294 50 318Q33 322 17 326T0 351Z" />
<glyph unicode="|" glyph-name="bar" horiz-adv-x="167" d="M0 774Q0 817 37 817Q73 817 73 774V19Q73 -19 36 -19Q0 -19 0 19V774Z" />
<glyph unicode="}" glyph-name="braceright" horiz-adv-x="361" d="M267 351Q267 368 251 375T218 388Q163 410 163 544Q163 579 167 623T171 668Q171 727 127 742Q107 750 33 750Q20 750 10 740T0 719Q0 693 43 693Q69 693 80 685Q98 673 98 636Q98 620 97 587T96
537Q96 395 179 348Q96 323 96 160Q96 142 97 114T98 76Q98 25 76 10Q65 3 33 2T0 -26Q0 -55 33 -55Q110 -55 133 -44Q171 -25 171 43Q171 54 169 95T167 162Q167 294 218 318Q235 322 251 326T267 351Z" />
<glyph unicode="~" glyph-name="asciitilde" horiz-adv-x="583" d="M33 186Q0 186 0 227Q0 275 45 310Q87 344 136 344Q188 344 257 303T350 261Q382 261 405 302T454 343Q489 343 489 299Q489 249 438 216Q393 186 342 186Q296 186 234 225T142 265Q111 265 82
226T33 186Z" />
<glyph unicode="&#xa0;" glyph-name="uni00A0" horiz-adv-x="32767" />
<glyph unicode="&#xa3;" glyph-name="sterling" horiz-adv-x="646" d="M151 348H37Q0 348 0 383Q0 421 37 421H127Q73 498 73 575Q73 651 127 700T284 750Q464 750 529 586Q533 576 533 567Q533 550 522 538T497 526Q472 526 458 557Q430 615 411 634Q368 676
284 676Q161 676 161 569Q161 499 208 421H342Q378 421 378 384Q378 348 342 348H227Q243 302 243 261Q243 165 143 76H515Q552 76 552 38Q552 2 515 2H78Q37 2 37 37Q37 57 70 92Q117 142 131 164Q163 214 163 272Q163 308 151 348Z" />
<glyph unicode="&#xa4;" glyph-name="currency" horiz-adv-x="771" d="M337 727Q276 727 241 674Q210 627 210 557Q210 483 243 431Q278 373 337 373Q398 373 433 425Q464 471 464 541Q464 615 431 668Q395 727 337 727ZM663 792L517 646Q529 636 529 582Q529
533 520 467L663 325Q677 311 677 293Q677 278 667 267T641 256Q625 256 609 271L486 395Q432 320 338 320Q245 320 191 394L67 271Q52 256 35 256Q21 256 11 267T0 293Q0 311 14 325L156 466Q143 507 143 551Q143 601 159 647L14 792Q0 806 0 823Q0 838 10 849T35
860Q52 860 67 845L197 716Q250 781 335 781Q423 781 477 713L609 845Q625 860 641 860Q656 860 666 849T677 823Q677 806 663 792Z" />
<glyph unicode="&#xa5;" glyph-name="yen" horiz-adv-x="586" d="M73 307H203V348L169 407H50Q6 407 6 443Q6 459 18 470T50 482H126L7 693Q0 706 0 719Q0 734 10 744T33 754Q52 754 64 733L245 429L426 733Q438 754 460 754Q492 754 492 723Q492 709 483 693L358
482H439Q482 482 482 444Q482 407 439 407H313L278 348V307H408Q452 307 452 269Q452 232 408 232H278V35Q278 -8 241 -8Q203 -8 203 35V232H73Q30 232 30 268Q30 284 41 295T73 307Z" />
<glyph unicode="&#xa6;" glyph-name="brokenbar" horiz-adv-x="167" d="M0 781Q0 802 12 814T41 827Q73 827 73 789V480Q73 443 36 443Q0 443 0 480V781ZM0 360Q0 381 12 393T41 406Q73 406 73 369V36Q73 -1 36 -1Q0 -1 0 36V360Z" />
<glyph unicode="&#xa7;" glyph-name="section" horiz-adv-x="611" d="M131 461Q57 507 55 586Q52 660 120 710Q183 757 269 757Q348 757 404 715Q468 667 482 578Q485 562 474 552T447 541Q413 541 403 578Q390 627 349 653Q313 676 265 676Q214 676 175 652T136
590Q136 541 235 491Q412 400 418 396Q517 330 517 243Q517 132 403 59Q467 2 467 -67Q467 -143 399 -188Q338 -228 250 -228Q160 -228 99 -187Q30 -142 30 -65Q30 -17 65 -17Q99 -17 108 -71Q114 -109 159 -132Q200 -154 254 -154Q307 -154 344 -131T382 -64Q382
-17 283 33Q117 117 99 129Q0 197 0 289Q0 348 37 395T131 461ZM206 421Q151 411 115 372T78 288Q78 230 139 198L338 92Q381 119 407 158T434 238Q434 302 363 339L206 421Z" />
<glyph unicode="&#xa8;" glyph-name="dieresis" horiz-adv-x="380" d="M49 717Q76 717 92 701Q105 686 105 665Q105 644 91 628T53 612Q28 612 13 629Q0 643 0 665Q0 686 13 701T49 717ZM229 717Q256 717 271 702T286 665Q286 644 272 628T232 612Q208 612 194
628T180 666Q180 687 193 702T229 717Z" />
<glyph unicode="&#xa9;" glyph-name="copyright" horiz-adv-x="852" d="M378 741Q556 741 662 622Q758 515 758 360Q758 208 663 103Q558 -14 378 -14Q200 -14 95 104Q0 211 0 364Q0 518 94 624Q199 741 378 741ZM378 51Q521 51 605 149Q681 236 681 363Q681 490
605 578Q521 676 378 676Q235 676 152 579Q77 492 77 366Q77 238 152 150Q236 51 378 51ZM378 124Q274 124 210 200Q152 269 152 366Q152 460 208 523Q270 594 378 594Q513 594 567 461Q569 457 569 453Q569 426 533 426Q506 426 495 451Q481 486 449 507T378 529Q307
529 266 478Q230 433 230 365Q230 295 268 245Q310 189 378 189Q435 189 473 219Q497 237 519 274Q538 304 546 304Q555 304 562 290T570 261Q570 253 567 248Q539 196 486 160T378 124Z" />
<glyph unicode="&#xaa;" glyph-name="ordfeminine" horiz-adv-x="327" d="M115 506Q153 506 176 541Q197 573 197 619Q197 663 177 693Q154 727 115 727Q79 727 60 695T40 617Q40 572 59 539T115 506ZM196 715Q196 752 196 747Q198 768 214 768Q233 768 233 749V490Q233
471 214 471Q198 471 196 490Q196 489 196 510Q167 473 107 473Q56 473 27 517Q0 555 0 613Q0 674 29 717Q61 765 115 765Q169 765 196 715Z" />
<glyph unicode="&#xab;" glyph-name="guillemotleft" horiz-adv-x="426" d="M325 429L226 274Q242 250 330 98Q332 95 332 91Q332 81 319 73T291 64Q274 64 267 76L167 239Q156 258 156 273Q156 288 167 307L267 470Q274 481 292 481Q332 481 332 450Q332 440
325 429ZM167 429L70 274Q84 251 173 98Q175 94 175 91Q175 81 162 73T134 64Q117 64 110 76L13 239Q0 261 0 273Q0 286 13 307L110 470Q118 482 133 482Q147 482 159 471T172 446Q172 437 167 429Z" />
<glyph unicode="&#xac;" glyph-name="logicalnot" horiz-adv-x="642" d="M472 120V239H43Q0 239 0 276Q0 291 11 303T43 315H506Q548 315 548 268V120Q548 77 512 77Q496 77 484 88T472 120Z" />
<glyph unicode="&#xae;" glyph-name="registered" horiz-adv-x="851" d="M377 750Q555 750 661 630Q757 523 757 369Q757 216 662 111Q557 -6 377 -6Q200 -6 95 113Q0 220 0 374Q0 527 94 632Q199 750 377 750ZM271 586H418Q481 586 521 548T561 458Q561 369 450
339Q480 295 509 250Q556 177 556 164Q556 134 522 134Q493 134 476 165L377 339H296V165Q296 134 262 134Q231 134 231 165V545Q231 574 244 581Q253 586 271 586ZM296 529V396H410Q447 396 467 415T488 461Q488 488 467 508T410 529H296ZM377 59Q520 59 604 157Q680
244 680 371Q680 498 604 587Q520 685 377 685Q234 685 151 587Q75 500 75 373Q75 246 151 157Q235 59 377 59Z" />
<glyph unicode="&#xaf;" glyph-name="overscore" horiz-adv-x="670" d="M38 801Q0 801 0 834Q0 867 38 867H537Q576 867 576 833Q576 801 537 801H38Z" />
<glyph unicode="&#xb0;" glyph-name="degree" horiz-adv-x="290" d="M99 801Q146 801 172 770Q196 743 196 703Q196 663 172 634Q144 602 99 602Q54 602 26 635Q0 665 0 707Q0 746 25 773T99 801ZM102 652Q123 652 135 666T147 700Q147 720 135 735T99 750Q76
750 63 736T50 701Q50 681 63 667T102 652Z" />
<glyph unicode="&#xb1;" glyph-name="plusminus" horiz-adv-x="595" d="M252 402V589Q252 628 290 628Q307 628 320 618T333 589V402H515Q538 402 551 389T565 359Q565 319 515 319H333V122Q333 105 321 95T291 84Q252 84 252 122V319H70Q29 319 29 362Q29 402
70 402H252ZM75 76H522Q565 76 565 38Q565 1 522 1H75Q31 1 31 37Q31 53 43 64T75 76Z" />
<glyph unicode="&#xb2;" glyph-name="uni00B2" horiz-adv-x="313" d="M0 700Q0 756 32 786Q61 813 104 813Q147 813 179 787T212 720Q212 678 177 632L58 476H193Q219 476 219 457Q219 439 193 439H33Q3 439 3 458Q3 467 12 476L148 660Q169 689 169 716Q169 743
150 760T106 778Q43 778 41 697Q40 669 21 669Q0 669 0 700Z" />
<glyph unicode="&#xb3;" glyph-name="uni00B3" horiz-adv-x="314" d="M115 811Q152 811 176 781T200 711Q200 662 163 631Q220 606 220 545Q220 501 188 466T106 430Q33 430 3 495Q0 501 0 508Q0 531 19 531Q28 531 35 520Q51 493 58 487Q77 468 107 468Q140 468
159 490Q176 509 176 538Q176 566 159 587T110 610Q87 612 87 629Q87 647 109 647T145 667T159 712Q159 774 102 774Q59 774 56 717Q55 696 36 696Q15 696 15 721Q15 763 43 787T115 811Z" />
<glyph unicode="&#xb6;" glyph-name="paragraph" horiz-adv-x="545" d="M402 688V4H335V688H260V4H194V398H192Q121 398 63 442Q0 490 0 560Q0 649 81 705Q153 754 245 754H451V688H402ZM35 618H58L91 524L125 618H147V507H133V600L98 507H84L49 603V507H35V618ZM242
591V502Q242 473 203 473Q187 473 170 477L169 489Q191 484 202 484Q227 484 227 504V526Q219 509 196 509Q159 509 159 550Q159 595 209 595Q224 595 242 591ZM228 582Q218 583 210 583Q173 583 173 549Q173 520 199 520Q228 520 228 549V582Z" />
<glyph unicode="&#xbb;" glyph-name="guillemotright" horiz-adv-x="428" d="M264 274L164 429Q155 444 155 456Q155 485 190 485Q212 485 221 470L322 307Q334 288 334 273Q334 258 322 239L221 76Q215 65 192 65Q155 65 155 86Q155 91 159 96L264 274ZM107 274Q94
296 3 449Q0 453 0 458Q0 468 12 476T39 485Q58 485 67 470L164 307Q177 286 177 273Q177 261 164 239L67 76Q61 65 40 65Q0 65 0 87Q0 92 3 96L107 274Z" />
<glyph unicode="&#xbd;" glyph-name="onehalf" horiz-adv-x="524" d="M68 563H22Q0 563 0 582Q0 599 18 599H80Q98 599 102 590Q104 586 104 565V238Q104 220 85 220Q68 220 68 238V563ZM268 520Q206 362 131 170Q127 158 111 158Q95 158 95 173Q95 179 99 186L236
527Q243 544 255 544Q263 544 267 537T268 520ZM211 260Q211 316 243 347Q272 374 315 374Q358 374 390 348T423 281Q423 239 387 193L268 37H404Q430 37 430 18Q430 0 404 0H243Q214 0 214 19Q214 28 223 37L359 221Q380 250 380 277Q380 304 361 321T316 339Q254
339 251 258Q251 230 231 230Q211 230 211 260Z" />
<glyph unicode="&#x384;" glyph-name="tonos" horiz-adv-x="328" d="M196 806Q201 807 205 807Q217 807 225 796T234 770Q234 742 203 731L32 671Q18 665 9 675T0 701Q0 730 23 739L196 806Z" />
<glyph unicode="&#x385;" glyph-name="dieresistonos" horiz-adv-x="447" d="M229 717Q256 717 271 702T286 665Q286 644 272 628T233 612Q208 612 194 628T180 666Q180 687 193 702T229 717ZM151 745Q147 744 144 744Q119 744 119 778Q119 803 142 812L315 880Q319
882 323 882Q335 882 344 871T353 844Q353 815 322 804L151 745ZM49 717Q77 717 92 702T107 665Q107 644 93 628T53 612Q28 612 13 629Q0 643 0 665Q0 686 13 701T49 717Z" />
<glyph unicode="&#x386;" glyph-name="Alphatonos" horiz-adv-x="678" d="M90 725Q98 742 119 742Q134 742 146 733T159 708Q159 701 155 693L63 514Q53 495 34 495Q20 495 10 504T0 528Q0 538 5 548L90 725ZM173 231H470L323 638L173 231ZM502 149H149L112 38Q98
-1 67 -1Q35 -1 35 34Q35 43 39 55L265 695Q281 740 323 740Q363 740 380 695L615 55Q619 43 619 33Q619 -1 585 -1Q558 -1 549 24L502 149Z" />
<glyph unicode="&#x388;" glyph-name="Epsilontonos" horiz-adv-x="626" d="M234 695Q234 740 274 740H529Q566 740 566 703Q566 667 529 667H307V421H521Q558 421 558 383Q558 348 521 348H307V73H537Q580 73 580 36Q580 0 537 0H274Q248 0 241 9T234 45V695ZM90
725Q98 742 119 742Q134 742 146 733T159 708Q159 701 155 693L63 514Q53 495 34 495Q20 495 10 504T0 528Q0 538 5 548L90 725Z" />
<glyph unicode="&#x389;" glyph-name="Etatonos" horiz-adv-x="876" d="M234 705Q234 742 270 742Q307 742 307 705V413H720V705Q720 742 756 742Q794 742 794 705V36Q794 -1 756 -1Q720 -1 720 36V339H307V36Q307 -1 271 -1Q234 -1 234 36V705ZM90 725Q98 742
119 742Q134 742 146 733T159 708Q159 701 155 693L63 514Q53 495 34 495Q20 495 10 504T0 528Q0 538 5 548L90 725Z" />
<glyph unicode="&#x38a;" glyph-name="Iotatonos" horiz-adv-x="389" d="M234 705Q234 742 270 742Q307 742 307 705V37Q307 0 270 0Q234 0 234 37V705ZM90 725Q98 742 119 742Q134 742 146 733T159 708Q159 701 155 693L63 514Q53 495 34 495Q20 495 10 504T0
528Q0 538 5 548L90 725Z" />
<glyph unicode="&#x38c;" glyph-name="Omicrontonos" horiz-adv-x="870" d="M470 765Q623 765 713 643Q794 533 794 375Q794 218 713 109Q623 -12 470 -12Q320 -12 231 111Q151 221 151 379Q151 536 231 645Q319 765 470 765ZM470 692Q358 692 293 595Q235 508
235 382Q235 253 294 162Q360 62 470 62Q584 62 651 159Q710 246 710 373Q710 502 650 592Q583 692 470 692ZM90 725Q98 742 119 742Q134 742 146 733T159 708Q159 701 155 693L63 514Q53 495 34 495Q20 495 10 504T0 528Q0 538 5 548L90 725Z" />
<glyph unicode="&#x38e;" glyph-name="Upsilontonos" horiz-adv-x="773" d="M436 348L247 681Q240 694 240 707Q240 742 272 742Q292 742 304 721L478 429L650 719Q664 742 686 742Q719 742 719 710Q719 699 713 689L512 348V43Q512 0 475 0Q436 0 436 43V348ZM90
725Q98 742 119 742Q134 742 146 733T159 708Q159 701 155 693L63 514Q53 495 34 495Q20 495 10 504T0 528Q0 538 5 548L90 725Z" />
<glyph unicode="&#x38f;" glyph-name="Omegatonos" horiz-adv-x="867" d="M481 766Q634 766 720 665Q798 575 798 441Q798 333 746 244Q691 149 596 113L588 69H732Q766 69 766 34Q766 0 732 0H516L535 166Q651 189 699 326Q746 457 692 573Q632 701 481 701Q366
701 301 620Q243 548 243 440Q243 343 291 266Q342 184 427 166L442 0H230Q195 0 195 34Q195 69 230 69H371L367 113Q271 148 215 243Q163 332 163 441Q163 575 240 665Q327 766 481 766ZM90 725Q98 742 119 742Q134 742 146 733T159 708Q159 701 155 693L63 514Q53
495 34 495Q20 495 10 504T0 528Q0 538 5 548L90 725Z" />
<glyph unicode="&#x390;" glyph-name="iotadieresistonos" horiz-adv-x="156" d="M150 694Q177 694 191 679T206 642Q206 620 193 606Q178 589 154 589Q129 589 115 605T101 643Q101 664 113 679T150 694ZM-84 694Q-56 694 -41 679T-26 642Q-26 620 -40 606Q-55
589 -79 589Q-105 589 -120 606Q-133 620 -133 642Q-133 663 -120 678T-84 694ZM-4 765Q-22 757 -22 736Q-22 701 10 701Q18 701 26 704L189 771Q213 781 213 805Q213 841 178 841Q168 841 157 837L-4 765ZM75 36Q75 -1 37 -1Q1 -1 1 36V517Q1 554 37 554Q75 554
75 517V36Z" />
<glyph unicode="&#x391;" glyph-name="Alpha" horiz-adv-x="643" d="M139 231H435L289 638L139 231ZM468 149H114L77 38Q64 -1 32 -1Q0 -1 0 34Q0 43 4 55L230 695Q247 740 288 740Q329 740 346 695L580 55Q584 43 584 33Q584 -1 550 -1Q523 -1 514 24L468 149Z" />
<glyph unicode="&#x392;" glyph-name="Beta" horiz-adv-x="492" d="M0 692Q0 740 41 740H164Q286 740 351 685Q407 637 407 564Q407 510 376 465T296 404Q377 390 423 332Q465 279 465 208Q465 124 410 65Q349 0 248 0H58Q25 0 14 8Q0 17 0 49V692ZM74 73H223Q299
73 342 114Q382 152 382 207Q382 269 333 314Q279 364 188 364H74V73ZM164 429Q244 429 289 466Q329 499 329 549Q329 596 292 630Q252 667 188 667H74V429H164Z" />
<glyph unicode="&#x393;" glyph-name="Gamma" horiz-adv-x="373" d="M0 693Q0 741 41 741H296Q314 741 324 730T335 703Q335 668 296 668H74V37Q74 0 36 0Q0 0 0 37V693Z" />
<glyph unicode="&#x394;" glyph-name="increment" horiz-adv-x="665" d="M96 81H511L300 640L96 81ZM46 0Q0 0 0 25Q0 32 4 43L243 697Q260 743 300 743Q340 743 357 697L605 43Q609 32 609 24Q609 0 549 0H46Z" />
<glyph unicode="&#x395;" glyph-name="Epsilon" horiz-adv-x="392" d="M0 695Q0 740 41 740H295Q332 740 332 703Q332 667 295 667H73V421H287Q324 421 324 383Q324 348 287 348H73V73H303Q346 73 346 36Q346 0 303 0H41Q14 0 7 9T0 45V695Z" />
<glyph unicode="&#x396;" glyph-name="Zeta" horiz-adv-x="566" d="M397 668H52Q14 668 14 704Q14 741 52 741H454Q505 741 505 708Q505 688 486 660L100 73H478Q517 73 517 38Q517 0 478 0H35Q0 0 0 42Q0 65 11 81L397 668Z" />
<glyph unicode="&#x397;" glyph-name="Eta" horiz-adv-x="643" d="M0 705Q0 742 36 742Q73 742 73 705V413H486V705Q486 742 522 742Q560 742 560 705V36Q560 -1 522 -1Q486 -1 486 36V339H73V36Q73 -1 37 -1Q0 -1 0 36V705Z" />
<glyph unicode="&#x398;" glyph-name="Theta" horiz-adv-x="716" d="M454 343H177Q140 343 140 378Q140 413 177 413H454Q491 413 491 377Q491 343 454 343ZM316 692Q205 692 140 595Q82 509 82 382Q82 253 141 163Q207 63 316 63Q431 63 497 160Q557 247 557
374Q557 503 496 592Q429 692 316 692ZM316 765Q469 765 559 643Q641 534 641 376Q641 219 560 110Q470 -11 316 -11Q168 -11 80 112Q0 222 0 381Q0 537 79 645Q166 765 316 765Z" />
<glyph unicode="&#x399;" glyph-name="Iota" horiz-adv-x="156" d="M0 705Q0 742 36 742Q73 742 73 705V37Q73 0 36 0Q0 0 0 37V705Z" />
<glyph unicode="&#x39a;" glyph-name="Kappa" horiz-adv-x="558" d="M0 711Q0 742 36 742Q74 742 74 711V429L423 731Q434 740 446 740Q462 740 474 728T487 700Q487 686 477 677L139 388L494 65Q507 53 507 38Q507 23 496 12T469 1Q451 1 435 16L74 356V32Q74
-1 38 -1Q0 -1 0 32V711Z" />
<glyph unicode="&#x39b;" glyph-name="Lambda" horiz-adv-x="658" d="M522 40L296 640L76 30Q65 0 37 0Q22 0 11 9T0 32Q0 38 2 43L239 697Q255 743 296 743Q336 743 353 697L595 56Q600 43 600 32Q600 -1 570 -1Q537 -1 522 40Z" />
<glyph unicode="&#x39c;" glyph-name="Mu" horiz-adv-x="873" d="M232 677L396 124L569 677Q589 742 638 742Q689 742 700 669L803 45Q806 25 796 13T769 1Q733 1 727 41L635 652L437 43Q422 0 396 0Q369 0 355 43L165 652L75 42Q69 1 32 1Q-6 1 1 47L100 669Q111
744 164 744Q212 744 232 677Z" />
<glyph unicode="&#x39d;" glyph-name="Nu" horiz-adv-x="633" d="M0 698Q0 742 36 742Q64 742 88 706L478 132V703Q478 741 514 741Q551 741 551 703V44Q551 -1 515 -1Q486 -1 465 30L73 602V38Q73 -1 37 -1Q0 -1 0 38V698Z" />
<glyph unicode="&#x39e;" glyph-name="Xi" horiz-adv-x="572" d="M496 741Q533 741 533 704Q533 668 496 668H51Q14 668 14 704Q14 741 51 741H496ZM116 421H437Q474 421 474 383Q474 348 437 348H116Q80 348 80 386Q80 421 116 421ZM505 76Q547 76 547 38Q547
2 505 2H43Q0 2 0 39Q0 76 43 76H505Z" />
<glyph unicode="&#x39f;" glyph-name="Omicron" horiz-adv-x="718" d="M318 765Q471 765 561 643Q643 533 643 375Q643 218 562 109Q472 -12 318 -12Q169 -12 80 111Q0 221 0 379Q0 536 79 645Q167 765 318 765ZM318 692Q206 692 142 595Q84 508 84 382Q84 253
143 162Q209 62 318 62Q433 62 499 159Q559 246 559 373Q559 502 498 592Q431 692 318 692Z" />
<glyph unicode="&#x3a0;" glyph-name="Pi" horiz-adv-x="641" d="M521 743Q536 743 547 732T559 705V37Q559 -1 523 -1Q486 -1 486 37V668H73V37Q73 0 35 0Q0 0 0 37V705Q0 743 36 743H521Z" />
<glyph unicode="&#x3a1;" glyph-name="Rho" horiz-adv-x="506" d="M0 701Q0 741 41 741H223Q335 741 400 670Q458 607 458 514Q458 424 403 360Q342 291 239 291H73V37Q73 0 37 0Q0 0 0 37V701ZM199 668H73V364H215Q294 364 341 411Q384 454 384 515Q384 577 338
620Q287 668 199 668Z" />
<glyph unicode="&#x3a3;" glyph-name="Sigma" horiz-adv-x="553" d="M307 391L101 73H479Q516 73 516 35Q516 0 479 0H35Q0 0 0 42Q0 65 11 81L211 391L32 659Q13 687 13 708Q13 741 64 741H466Q503 741 503 703Q503 667 466 667H121L307 391Z" />
<glyph unicode="&#x3a4;" glyph-name="Tau" horiz-adv-x="497" d="M187 668H40Q0 668 0 704Q0 741 40 741H409Q447 741 447 704Q447 668 409 668H261V42Q261 0 225 0Q187 0 187 42V668Z" />
<glyph unicode="&#x3a5;" glyph-name="Upsilon" horiz-adv-x="533" d="M197 348L7 681Q0 694 0 707Q0 742 33 742Q52 742 64 721L239 429L410 719Q424 742 446 742Q479 742 479 710Q479 699 473 689L272 348V43Q272 0 235 0Q197 0 197 43V348Z" />
<glyph unicode="&#x3a6;" glyph-name="Phi" horiz-adv-x="723" d="M298 675Q298 687 298 729Q298 766 335 766Q372 766 372 726L371 675Q510 675 593 591Q668 516 668 408Q668 301 594 228Q512 146 371 146V38Q371 -1 335 -1Q298 -1 298 38V146Q156 146 74 228Q0
302 0 409Q0 517 75 592Q158 675 298 675ZM298 215V606Q191 606 128 544Q71 489 71 409Q71 330 128 276Q190 215 298 215ZM371 215Q478 215 541 275Q597 329 597 408Q597 488 540 544Q477 606 371 606V215Z" />
<glyph unicode="&#x3a7;" glyph-name="Chi" horiz-adv-x="646" d="M250 409L48 684Q38 697 38 709Q38 724 48 733T73 743Q92 743 105 725L291 461L471 724Q484 742 502 742Q517 742 528 732T539 707Q539 695 531 684L336 412L573 70Q587 50 587 33Q587 0 553 0Q531
0 516 21L293 350L70 20Q56 0 34 0Q0 0 0 35Q0 51 13 69L250 409Z" />
<glyph unicode="&#x3a8;" glyph-name="Psi" horiz-adv-x="725" d="M365 238Q475 238 527 283Q583 332 583 442V706Q583 743 620 743Q658 743 658 706V429Q658 296 575 229Q500 169 365 169V36Q365 -1 328 -1Q292 -1 292 36V169Q157 169 82 229Q0 296 0 429V706Q0
742 38 742Q73 742 73 706V442Q73 238 292 238V729Q292 766 328 766Q365 766 365 729V238Z" />
<glyph unicode="&#x3a9;" glyph-name="Omega" horiz-adv-x="704" d="M317 766Q470 766 557 665Q635 575 635 441Q635 333 583 244Q528 149 433 113L424 69H569Q603 69 603 34Q603 0 569 0H352L372 166Q488 189 536 326Q583 457 529 573Q469 701 317 701Q202 701
138 620Q80 548 80 440Q80 343 127 266Q179 184 264 166L279 0H66Q32 0 32 34Q32 69 66 69H208L204 113Q108 148 52 243Q0 332 0 441Q0 575 77 665Q164 766 317 766Z" />
<glyph unicode="&#x3aa;" glyph-name="Iotadieresis" horiz-adv-x="156" d="M127 865Q153 865 167 850T181 813Q181 792 167 777T128 761Q103 761 89 777T74 815Q74 865 127 865ZM-56 865Q-28 865 -14 850T1 813Q1 792 -12 778Q-27 761 -51 761Q-76 761 -90 777T-104
814Q-104 835 -91 850T-56 865ZM0 705Q0 742 35 742Q73 742 73 705V37Q73 0 35 0Q0 0 0 37V705Z" />
<glyph unicode="&#x3ab;" glyph-name="Upsilondieresis" horiz-adv-x="533" d="M197 348L7 681Q0 694 0 707Q0 742 33 742Q52 742 64 721L239 429L410 719Q424 742 446 742Q479 742 479 710Q479 699 473 689L272 348V43Q272 0 235 0Q197 0 197 43V348ZM327 865Q353
865 367 850T381 813Q381 792 367 777T328 761Q303 761 289 777T274 815Q274 865 327 865ZM144 865Q172 865 186 850T201 813Q201 792 188 778Q173 761 149 761Q124 761 110 777T96 814Q96 835 109 850T144 865Z" />
<glyph unicode="&#x3ac;" glyph-name="alphatonos" horiz-adv-x="547" d="M191 661Q173 653 173 633Q173 599 203 599Q209 599 216 602L393 673Q420 683 420 707Q420 721 409 732T382 743Q372 743 361 738L191 661ZM229 50Q306 50 353 122Q395 187 395 279Q395
368 354 429Q308 497 229 497Q158 497 116 428Q79 365 79 274Q79 183 116 120Q158 50 229 50ZM229 573Q283 573 327 548T393 482Q393 496 392 529Q392 577 430 577Q467 577 467 531V21Q467 -9 431 -9Q395 -9 394 19T393 62Q339 -12 215 -12Q111 -12 51 74Q-2 151
-2 266Q-2 388 57 476Q122 573 229 573Z" />
<glyph unicode="&#x3ad;" glyph-name="epsilontonos" horiz-adv-x="518" d="M191 661Q173 653 173 633Q173 599 203 599Q209 599 216 602L393 673Q420 683 420 707Q420 721 409 732T382 743Q372 743 361 738L191 661ZM84 307H269Q288 307 303 297T319 268Q319
231 269 231H84Q84 162 136 109T258 56Q344 56 410 122Q420 131 432 131Q447 131 458 120T469 92Q469 74 453 59Q383 -12 261 -12Q136 -12 65 79Q1 160 1 279Q1 398 63 481Q133 573 248 573Q378 573 452 500Q463 488 463 475Q463 461 450 451T422 440Q408 440 398
449Q347 501 263 501Q189 501 140 456Q84 404 84 307Z" />
<glyph unicode="&#x3ae;" glyph-name="etatonos" horiz-adv-x="496" d="M0 532Q0 574 36 574Q73 574 73 531V486Q128 570 229 570Q305 570 359 520Q418 467 418 380V-195Q418 -232 381 -232Q345 -232 345 -195V372Q345 430 308 464Q274 494 223 494Q164 494 121
454Q73 408 73 331V37Q73 0 36 0Q0 0 0 37V532ZM120 661Q102 653 102 633Q102 599 132 599Q138 599 145 602L323 673Q349 683 349 707Q349 721 339 732T312 743Q301 743 290 738L120 661Z" />
<glyph unicode="&#x3af;" glyph-name="iotatonos" horiz-adv-x="156" d="M75 36Q75 -1 37 -1Q0 -1 0 36V517Q0 554 36 554Q75 554 75 517V36ZM15 661Q-4 653 -4 633Q-4 599 27 599Q33 599 40 602L217 673Q244 683 244 707Q244 721 233 732T206 743Q196 743 185
738L15 661Z" />
<glyph unicode="&#x3b0;" glyph-name="upsilondieresistonos" horiz-adv-x="497" d="M0 518Q0 555 36 555Q73 555 73 518V195Q73 128 115 90Q153 55 207 55Q263 55 302 90Q345 130 345 195V518Q345 555 381 555Q418 555 418 518V171Q418 58 310 10Q209 -34 108
9Q0 55 0 171V518ZM314 694Q341 694 356 679T371 642Q371 620 357 606Q343 589 318 589Q293 589 279 605T265 643Q265 664 278 679T314 694ZM80 694Q108 694 123 679T138 642Q138 620 125 606Q110 589 85 589Q59 589 45 606Q32 620 32 642Q32 663 45 678T80 694ZM160
765Q142 757 142 736Q142 701 174 701Q182 701 190 704L353 771Q377 781 377 805Q377 841 342 841Q332 841 321 837L160 765Z" />
<glyph unicode="&#x3b1;" glyph-name="alpha" horiz-adv-x="548" d="M229 50Q306 50 353 122Q395 187 395 279Q395 368 354 429Q308 497 229 497Q158 497 116 428Q79 365 79 274Q79 183 116 120Q158 50 229 50ZM229 573Q283 573 327 548T393 482Q393 496 392 529Q392
577 430 577Q467 577 467 531V21Q467 -9 431 -9Q395 -9 394 19T393 62Q339 -12 215 -12Q111 -12 51 74Q-2 151 -2 266Q-2 388 57 476Q122 573 229 573Z" />
<glyph unicode="&#x3b2;" glyph-name="beta" horiz-adv-x="532" d="M74 55V-188Q74 -231 37 -231Q0 -231 0 -189V579Q0 765 207 765Q295 765 349 706Q397 652 397 578Q397 482 321 443Q390 418 428 359Q462 305 462 236Q462 138 400 68Q331 -9 220 -9Q114 -9 74
55ZM73 208Q73 143 115 103T222 62Q287 62 334 118T381 243Q381 297 349 337Q312 381 240 397Q200 405 200 432Q200 459 239 467T300 506T321 574Q321 622 292 657Q259 694 206 694Q127 694 97 638Q74 596 74 510L73 208Z" />
<glyph unicode="&#x3b3;" glyph-name="gamma" horiz-adv-x="503" d="M185 29Q167 78 2 536Q0 541 0 546Q0 573 34 573Q69 573 81 539L224 122L364 542Q374 574 407 574Q443 574 443 547Q443 543 441 539Q395 414 360 318Q275 85 261 29Q261 29 261 -187Q261 -234
223 -234Q185 -234 185 -186V29Z" />
<glyph unicode="&#x3b4;" glyph-name="delta" horiz-adv-x="546" d="M242 445Q165 445 121 386Q82 334 82 257Q82 176 123 118Q168 53 240 53Q318 53 361 110Q399 160 399 237Q399 318 358 379Q312 445 242 445ZM245 767Q293 767 346 745Q403 722 434 686Q444
675 444 663Q444 650 432 641T402 631Q400 631 347 663T251 696Q199 696 173 673T147 615Q147 578 173 547T240 512Q305 506 337 494Q381 477 417 434Q477 363 477 242Q477 137 423 68Q360 -12 240 -12Q123 -12 58 69Q0 140 0 247Q0 330 36 397Q74 469 139 496Q107
509 88 542T69 616Q69 677 110 719Q158 767 245 767Z" />
<glyph unicode="&#x3b5;" glyph-name="epsilon" horiz-adv-x="518" d="M84 307H269Q288 307 303 297T319 268Q319 231 269 231H84Q84 162 136 109T258 56Q344 56 410 122Q420 131 432 131Q447 131 458 120T469 92Q469 74 453 59Q383 -12 261 -12Q136 -12 65 79Q1
160 1 279Q1 398 63 481Q133 573 248 573Q378 573 452 500Q463 488 463 475Q463 461 450 451T422 440Q408 440 398 449Q347 501 263 501Q189 501 140 456Q84 404 84 307Z" />
<glyph unicode="&#x3b6;" glyph-name="zeta" horiz-adv-x="512" d="M212 71Q457 63 460 -66Q462 -153 415 -192Q382 -220 306 -231Q295 -233 284 -233Q227 -233 227 -200Q227 -172 275 -167Q334 -160 345 -156Q380 -143 383 -104Q388 -56 355 -33Q331 -15 279
-8Q236 -4 193 0Q100 12 48 88Q0 158 0 262Q0 382 62 492Q130 611 248 669H53Q16 669 16 704Q16 741 53 741L424 742Q461 742 461 706Q461 672 426 667Q255 645 161 522Q82 418 82 283Q82 195 118 134T212 71Z" />
<glyph unicode="&#x3b7;" glyph-name="eta" horiz-adv-x="496" d="M0 532Q0 574 36 574Q73 574 73 531V486Q128 570 229 570Q305 570 359 520Q418 467 418 380V-195Q418 -232 381 -232Q345 -232 345 -195V372Q345 430 308 464Q274 494 223 494Q164 494 121 454Q73
408 73 331V37Q73 0 36 0Q0 0 0 37V532Z" />
<glyph unicode="&#x3b8;" glyph-name="theta" horiz-adv-x="556" d="M243 764Q355 764 421 642Q481 531 481 373Q481 217 422 110Q356 -9 243 -9Q128 -9 61 111Q0 219 0 376Q0 534 61 643Q128 764 243 764ZM327 349H155Q120 349 120 383Q120 421 155 421H327Q360
421 360 383Q360 349 327 349ZM246 695Q169 695 122 593Q80 502 80 372Q80 246 120 160Q164 64 241 64Q315 64 359 165Q399 257 399 387Q399 513 361 599Q319 695 246 695Z" />
<glyph unicode="&#x3b9;" glyph-name="iota" horiz-adv-x="156" d="M74 36Q74 -1 36 -1Q0 -1 0 36V517Q0 554 36 554Q74 554 74 517V36Z" />
<glyph unicode="&#x3ba;" glyph-name="kappa" horiz-adv-x="431" d="M0 517Q0 555 37 555Q73 555 73 517V364L311 554Q322 563 334 563Q350 563 362 551T374 524Q374 503 353 487L130 315L367 79Q390 55 390 32Q390 -2 356 -2Q332 -2 309 22L73 256V38Q73 1 37
1Q0 1 0 38V517Z" />
<glyph unicode="&#x3bb;" glyph-name="lambda" horiz-adv-x="459" d="M184 503L108 708Q106 713 106 718Q106 743 139 743Q173 743 185 710L416 62Q421 48 421 37Q421 1 387 1Q355 1 343 35L216 404L82 37Q68 0 34 0Q0 0 0 28Q0 34 3 41L184 503Z" />
<glyph unicode="&#x3bc;" glyph-name="mu" horiz-adv-x="498" d="M0 518Q0 555 37 555Q73 555 73 518V189Q73 133 111 100Q145 69 196 69Q256 69 298 109Q345 155 345 231V518Q345 555 382 555Q418 555 418 518V43Q418 -1 382 -1Q346 -1 346 38Q345 62 345 76Q289
-9 187 -9Q124 -9 73 29V-200Q73 -237 36 -237Q0 -237 0 -200V518Z" />
<glyph unicode="&#x3bd;" glyph-name="nu" horiz-adv-x="482" d="M78 508L208 124L342 510Q358 556 388 556Q419 556 419 521Q419 512 415 502L251 30Q240 -1 208 -1Q179 -1 168 30L5 500Q0 514 0 526Q0 555 26 555Q62 555 78 508Z" />
<glyph unicode="&#x3be;" glyph-name="xi" horiz-adv-x="494" d="M222 71Q451 66 451 -73Q451 -220 263 -234Q242 -236 230 -225T217 -199Q217 -172 247 -167Q274 -164 301 -160Q334 -155 350 -140Q372 -121 372 -82Q372 -2 221 -2Q104 -2 41 84Q-17 165 11 260Q42
362 159 402Q76 440 76 523Q76 616 166 672H48Q7 672 7 706Q7 741 49 741H422Q458 741 458 704Q458 672 422 672Q287 672 216 629Q157 593 157 537Q157 494 191 462T275 430Q311 430 311 397Q311 363 274 360Q180 354 128 306Q82 263 82 204Q82 151 119 113Q158
72 222 71Z" />
<glyph unicode="&#x3bf;" glyph-name="omicron" horiz-adv-x="560" d="M241 573Q355 573 423 479Q484 395 484 274Q484 157 424 77Q358 -12 241 -12Q127 -12 60 80Q0 162 0 281Q0 400 60 482Q127 573 241 573ZM241 506Q165 506 122 438Q84 378 84 288Q84 195 124
127Q169 53 241 53Q319 53 362 120Q401 179 401 268Q401 362 359 431Q314 506 241 506Z" />
<glyph unicode="&#x3c0;" glyph-name="pi" horiz-adv-x="506" d="M0 515Q0 530 9 542T33 554H388Q424 554 424 514L425 36Q425 -1 388 -1Q352 -1 352 36V488H74V36Q74 -1 36 -1Q0 -1 0 36V515Z" />
<glyph unicode="&#x3c1;" glyph-name="rho" horiz-adv-x="546" d="M231 506Q156 506 113 437Q74 375 74 284Q74 191 114 126Q158 53 231 53Q306 53 349 122Q388 184 388 275Q388 368 348 433Q304 506 231 506ZM0 282Q0 399 57 481Q121 573 231 573Q345 573 413
480Q474 396 474 276Q474 158 414 78Q347 -12 231 -12Q143 -12 74 67V-194Q74 -231 36 -231Q0 -231 0 -194V282Z" />
<glyph unicode="&#x3c2;" glyph-name="sigma1" horiz-adv-x="454" d="M349 -79Q349 -33 258 3Q131 53 90 87Q0 162 0 303Q0 413 74 493T250 573Q314 573 373 537Q404 518 404 495Q404 480 393 471T365 461Q350 461 337 468Q292 494 250 494Q177 494 128 421Q85
357 85 289Q85 182 175 126Q259 89 343 52Q434 10 434 -64Q434 -141 378 -187Q329 -228 253 -235Q219 -238 199 -228T179 -203Q179 -173 235 -166Q287 -159 310 -146Q349 -125 349 -79Z" />
<glyph unicode="&#x3c3;" glyph-name="sigma" horiz-adv-x="621" d="M250 572Q276 572 329 563T522 553Q559 553 559 518Q559 486 522 486H420Q485 402 485 270Q485 153 428 77Q364 -12 244 -12Q131 -12 62 82Q0 167 0 287Q0 404 61 483Q130 572 250 572ZM244
53Q321 53 364 120Q403 179 403 268Q403 362 362 430Q316 505 244 505Q168 505 124 437Q86 377 86 288Q86 194 126 127Q171 53 244 53Z" />
<glyph unicode="&#x3c4;" glyph-name="tau" horiz-adv-x="468" d="M241 488V45Q241 1 204 1Q168 1 168 45V488L39 487Q0 487 0 520Q0 554 39 554H378Q415 554 415 520Q415 488 378 488H241Z" />
<glyph unicode="&#x3c5;" glyph-name="upsilon" horiz-adv-x="499" d="M0 518Q0 555 36 555Q73 555 73 518V195Q73 128 115 90Q153 55 207 55Q263 55 302 90Q345 130 345 195V518Q345 555 381 555Q418 555 418 518V171Q418 58 310 10Q209 -34 108 9Q0 55 0 171V518Z" />
<glyph unicode="&#x3c6;" glyph-name="phi" horiz-adv-x="719" d="M241 564Q253 564 261 553T270 529Q270 502 239 497Q159 485 116 425Q77 370 77 294Q77 201 129 132Q185 57 272 57V311Q272 433 298 486Q336 564 444 564Q535 564 593 481Q647 403 647 295Q647
172 576 89Q494 -7 345 -9V-195Q345 -233 309 -233Q272 -233 272 -195V-9Q144 -9 68 85Q0 170 0 291Q0 403 60 479Q127 564 241 564ZM345 59Q458 59 519 135Q570 199 570 296Q570 377 536 436Q499 499 444 499Q374 499 354 433Q345 403 345 309V59Z" />
<glyph unicode="&#x3c7;" glyph-name="chi" horiz-adv-x="496" d="M177 173L32 491Q24 507 24 521Q24 558 60 558Q87 558 97 534L220 255L357 532Q369 556 392 556Q407 556 418 545T429 517Q429 504 422 489L261 173L441 -171Q455 -198 445 -217Q437 -234 416
-234Q388 -234 370 -200L219 95L79 -204Q64 -236 31 -236Q11 -236 3 -220Q-6 -203 9 -173L177 173Z" />
<glyph unicode="&#x3c8;" glyph-name="psi" horiz-adv-x="749" d="M375 532V57Q471 57 536 118T602 278V467Q602 513 638 513Q654 513 666 501T678 466V285Q678 158 591 74T375 -12V-182Q375 -235 338 -235Q302 -235 302 -182V-12Q175 -12 88 73T0 285V466Q0 514
35 514Q51 514 63 501T76 467V285Q76 180 142 117Q205 57 302 57V532Q302 572 338 572Q375 572 375 532Z" />
<glyph unicode="&#x3c9;" glyph-name="omega" horiz-adv-x="753" d="M674 274Q674 128 605 50Q548 -14 463 -14Q419 -14 384 5T337 55Q325 25 290 6T210 -13Q125 -13 69 50Q0 127 0 274Q0 381 49 463Q108 560 209 560Q226 560 238 549T250 523Q250 498 217 493Q81
471 81 274Q81 166 124 105Q160 53 212 53Q249 53 274 81T300 159V267Q300 311 338 311Q375 311 375 264V153Q375 104 398 76Q418 51 451 51Q504 51 545 107Q592 171 592 274Q592 456 454 493Q421 502 421 525Q421 538 433 549T464 560Q565 560 624 463Q674 381
674 274Z" />
<glyph unicode="&#x3ca;" glyph-name="iotadieresis" horiz-adv-x="156" d="M125 694Q152 694 167 679T182 642Q182 620 169 606Q154 589 130 589Q104 589 90 605T76 643Q76 664 89 679T125 694ZM-50 694Q-22 694 -7 679T8 642Q8 620 -6 606Q-21 589 -46 589Q-71
589 -86 606Q-99 620 -99 642Q-99 663 -86 678T-50 694ZM82 36Q82 -1 44 -1Q8 -1 8 36V517Q8 554 44 554Q82 554 82 517V36Z" />
<glyph unicode="&#x3cb;" glyph-name="upsilondieresis" horiz-adv-x="496" d="M295 694Q323 694 337 679T352 642Q352 620 339 606Q324 589 300 589Q275 589 261 605T246 643Q246 664 259 679T295 694ZM120 694Q148 694 163 679T178 642Q178 620 165 606Q150
589 125 589Q99 589 85 606Q72 620 72 642Q72 663 85 678T120 694ZM0 518Q0 555 36 555Q73 555 73 518V195Q73 128 115 90Q153 55 207 55Q263 55 302 90Q345 130 345 195V518Q345 555 381 555Q418 555 418 518V171Q418 58 310 10Q209 -34 108 9Q0 55 0 171V518Z"
/>
<glyph unicode="&#x3cc;" glyph-name="omicrontonos" horiz-adv-x="557" d="M241 573Q355 573 423 479Q484 395 484 274Q484 157 424 77Q358 -12 241 -12Q127 -12 60 80Q0 162 0 281Q0 400 60 482Q127 573 241 573ZM241 506Q165 506 122 438Q84 378 84 288Q84
195 124 127Q169 53 241 53Q319 53 362 120Q401 179 401 268Q401 362 359 431Q314 506 241 506ZM191 661Q173 653 173 633Q173 599 203 599Q209 599 216 602L393 673Q420 683 420 707Q420 721 409 732T382 743Q372 743 361 738L191 661Z" />
<glyph unicode="&#x3cd;" glyph-name="upsilontonos" horiz-adv-x="496" d="M0 518Q0 555 36 555Q73 555 73 518V195Q73 128 115 90Q153 55 207 55Q263 55 302 90Q345 130 345 195V518Q345 555 381 555Q418 555 418 518V171Q418 58 310 10Q209 -34 108 9Q0 55
0 171V518ZM167 661Q149 653 149 633Q149 599 179 599Q185 599 192 602L370 673Q396 683 396 707Q396 721 386 732T359 743Q348 743 337 738L167 661Z" />
<glyph unicode="&#x3ce;" glyph-name="omegatonos" horiz-adv-x="753" d="M674 274Q674 128 605 50Q548 -14 464 -14Q420 -14 385 5T337 55Q325 25 290 6T210 -13Q125 -13 69 50Q0 127 0 274Q0 381 49 463Q108 560 209 560Q226 560 238 549T250 523Q250 498 217
493Q81 471 81 274Q81 166 124 105Q160 53 212 53Q249 53 274 81T300 159V267Q300 311 338 311Q375 311 375 264V153Q375 104 398 76Q418 51 451 51Q504 51 545 107Q592 171 592 274Q592 456 454 493Q421 502 421 525Q421 538 433 549T464 560Q565 560 624 463Q674
381 674 274ZM308 661Q290 653 290 633Q290 599 320 599Q326 599 333 602L511 673Q537 683 537 707Q537 721 527 732T500 743Q489 743 478 738L308 661Z" />
<glyph unicode="&#x2013;" glyph-name="endash" horiz-adv-x="686" d="M43 315H549Q592 315 592 276Q592 239 549 239H43Q0 239 0 276Q0 291 11 303T43 315Z" />
<glyph unicode="&#x2014;" glyph-name="emdash" horiz-adv-x="884" d="M43 315H747Q790 315 790 276Q790 239 747 239H43Q0 239 0 276Q0 291 11 303T43 315Z" />
<glyph unicode="&#x2018;" glyph-name="quoteleft" horiz-adv-x="242" d="M5 693L70 545Q79 524 106 524Q122 524 135 532T148 554Q148 559 146 564L86 717Q71 755 41 755Q24 755 12 743T0 713Q0 703 5 693Z" />
<glyph unicode="&#x2019;" glyph-name="quoteright" horiz-adv-x="242" d="M144 693L79 545Q69 524 42 524Q26 524 13 532T0 554Q0 559 2 564L62 717Q77 755 107 755Q124 755 136 743T148 713Q148 703 144 693Z" />
<glyph unicode="&#x201a;" glyph-name="quotesinglbase" horiz-adv-x="242" d="M145 64L70 -113Q61 -133 39 -133Q24 -133 12 -124T0 -100Q0 -94 3 -88L70 76Q81 102 110 102Q125 102 136 94T148 74Q148 69 145 64Z" />
<glyph unicode="&#x201c;" glyph-name="quotedblleft" horiz-adv-x="405" d="M5 693L70 545Q79 524 106 524Q122 524 135 532T148 554Q148 559 146 564L86 717Q71 755 41 755Q24 755 12 743T0 713Q0 703 5 693ZM167 693L232 545Q242 524 269 524Q285 524 298 532T311
554Q311 559 309 564L249 717Q234 755 204 755Q187 755 175 743T163 713Q163 703 167 693Z" />
<glyph unicode="&#x201d;" glyph-name="quotedblright" horiz-adv-x="405" d="M306 693L241 545Q232 524 205 524Q189 524 176 532T163 554Q163 559 165 564L225 717Q240 755 270 755Q286 755 298 743T311 713Q311 703 306 693ZM144 693L79 545Q69 524 42 524Q26
524 13 532T0 554Q0 559 2 564L62 717Q77 755 107 755Q124 755 136 743T148 713Q148 703 144 693Z" />
<glyph unicode="&#x201e;" glyph-name="quotedblbase" horiz-adv-x="404" d="M145 64L70 -113Q64 -127 40 -127Q0 -127 0 -99Q0 -94 2 -88L70 76Q79 97 110 97Q147 97 147 73Q147 69 145 64ZM308 64L232 -113Q226 -127 203 -127Q163 -127 163 -99Q163 -94 165
-88L232 76Q241 97 272 97Q310 97 310 73Q310 69 308 64Z" />
<glyph unicode="&#x2020;" glyph-name="dagger" horiz-adv-x="537" d="M406 482H257V49Q257 -1 222 -1Q207 -1 196 12T184 49V482H37Q0 482 0 520Q0 555 37 555H184V716Q184 739 195 752T222 766Q257 766 257 716V555H406Q443 555 443 517Q443 482 406 482Z" />
<glyph unicode="&#x2021;" glyph-name="daggerdbl" horiz-adv-x="537" d="M406 265Q443 265 443 227Q443 192 406 192H257V35Q257 -15 222 -15Q207 -15 196 -2T184 35V192H37Q0 192 0 230Q0 265 37 265H184V540H37Q0 540 0 578Q0 614 37 614H184V692Q184 715 195
728T222 741Q257 741 257 692V614H406Q443 614 443 576Q443 540 406 540H257V265H406Z" />
<glyph unicode="&#x2022;" glyph-name="bullet" horiz-adv-x="552" d="M229 576Q337 576 400 504Q458 439 458 345Q458 251 400 186Q337 113 229 113Q121 113 57 186Q0 251 0 345Q0 439 57 504Q121 576 229 576Z" />
<glyph unicode="&#x2026;" glyph-name="ellipsis" horiz-adv-x="524" d="M52 101Q76 101 90 85T105 47Q105 0 55 0Q29 0 14 17Q0 31 0 52Q0 72 13 86T52 101ZM214 101Q239 101 253 85T267 47Q267 0 218 0Q192 0 177 17Q163 31 163 52Q163 72 176 86T214 101ZM377
101Q401 101 415 85T430 47Q430 0 381 0Q355 0 339 17Q325 31 325 52Q325 72 339 86T377 101Z" />
<glyph unicode="&#x2030;" glyph-name="perthousand" horiz-adv-x="1191" d="M539 356Q615 356 661 297Q702 244 702 168Q702 93 662 43Q617 -14 539 -14Q460 -14 413 45Q370 99 370 175Q370 249 411 300Q458 356 539 356ZM539 43Q587 43 614 82Q639 116 639 167Q639
220 613 257Q585 299 539 299Q491 299 463 259Q438 223 438 172Q438 119 463 83Q491 43 539 43ZM167 388Q90 388 43 448Q0 502 0 579Q0 652 41 702Q87 758 167 758Q245 758 291 700Q333 648 333 572Q333 497 292 446Q245 388 167 388ZM167 445Q215 445 244 485Q269
520 269 572Q269 624 243 660Q215 701 167 701Q120 701 94 664T68 575Q68 523 93 486Q121 445 167 445ZM183 35L455 733Q467 763 493 763Q523 763 523 730Q523 719 518 705Q482 603 375 329Q260 39 239 0Q227 -22 207 -22Q178 -22 178 11Q178 22 183 35ZM934 356Q1010
356 1056 297Q1097 244 1097 168Q1097 93 1057 43Q1012 -14 934 -14Q855 -14 808 45Q765 99 765 175Q765 249 807 300Q853 356 934 356ZM934 43Q982 43 1009 82Q1034 116 1034 167Q1034 220 1008 257Q980 299 934 299Q886 299 858 259Q833 223 833 172Q833 119
859 83Q887 43 934 43Z" />
<glyph unicode="&#x2039;" glyph-name="guilsinglleft" horiz-adv-x="650" d="M522 469L110 271L514 75Q550 57 550 29Q550 -1 516 -1Q500 -1 479 9L35 230Q0 248 0 277Q0 306 35 322L490 534Q519 547 538 539Q556 531 556 512Q556 485 522 469Z" />
<glyph unicode="&#x203a;" glyph-name="guilsinglright" horiz-adv-x="650" d="M437 267L33 473Q0 490 0 515Q0 546 35 546Q47 546 59 541L512 319Q556 297 556 272Q556 244 504 219L59 6Q48 1 37 1Q1 1 1 36Q1 64 33 79L437 267Z" />
<glyph unicode="&#x2122;" glyph-name="trademark" horiz-adv-x="676" d="M92 718H18Q0 718 0 737Q0 754 18 754H203Q222 754 222 736Q222 718 203 718H129V401Q129 376 111 376Q92 376 92 401V718ZM298 734L380 446L466 734Q475 761 501 761Q527 761 532 730L582
403Q585 381 565 381Q547 381 544 401L499 710L400 401Q393 379 380 379Q366 379 359 401L264 710L219 401Q216 380 198 380Q179 380 182 403Q188 444 232 730Q236 761 263 761Q290 761 298 734Z" />
</font>
</defs>
</svg>
